A-A+

赫伯特·冯·卡拉扬 – 格里格:培尔·金特组曲 & 霍尔堡组曲 APE+CUE 下载

2015年04月28日 古典交响 暂无评论 阅读 3,359 views 次

2008128103622403

博主的第一张古典音乐正版cd,购于1997年的天龙超市。

卡拉扬指挥

REM DATE 1993
REM DISCID D4123110
REM COMMENT "ExactAudioCopy v1.0b5"
PERFORMER "Sibelius, Grieg; Berliner Philharmoniker, Herbert von Karajan"
TITLE "Grieg: Peer Gynt Suites, Holberg Suite / Sibelius: Valse Triste, Finlandia, T..."
FILE "Sibelius, Grieg; Berliner Philharmoniker, Herbert von Karajan - Grieg- Peer Gynt Suites, Holberg Suite , Sibelius- Valse Triste, Finlandia, The Swan of Tuonela.ape" WAVE
TRACK 01 AUDIO
TITLE "Peer Gynt Suite no. 1, op. 46: I. Morning Mood (Allegretto pastorale)"
PERFORMER "Edvard Grieg"
INDEX 00 00:00:00
INDEX 01 00:00:33
TRACK 02 AUDIO
TITLE "Peer Gynt Suite no. 1, op. 46: II. Aase's Death (Andante doloroso)"
PERFORMER "Edvard Grieg"
INDEX 01 04:11:33
TRACK 03 AUDIO
TITLE "Peer Gynt Suite no. 1, op. 46: III. Anitra's Dance (Tempo di Mazurka)"
PERFORMER "Edvard Grieg"
INDEX 01 08:44:70
TRACK 04 AUDIO
TITLE "Peer Gynt Suite no. 1, op. 46: IV. In the Hall of the Mountain King (Alla Mar..."
PERFORMER "Edvard Grieg"
INDEX 01 12:03:33
TRACK 05 AUDIO
TITLE "Peer Gynt Suite no. 2, op. 55: I. The Abduction of the Bride (Allegro furioso..."
PERFORMER "Edvard Grieg"
INDEX 01 14:17:33
TRACK 06 AUDIO
TITLE "Peer Gynt Suite no. 2, op. 55: II. Arabian Dance (Allegretto vivace)"
PERFORMER "Edvard Grieg"
INDEX 01 19:14:33
TRACK 07 AUDIO
TITLE "Peer Gynt Suite no. 2, op. 55: III. Peer Gynt's Return Home (Allegro agitato)"
PERFORMER "Edvard Grieg"
INDEX 01 24:08:33
TRACK 08 AUDIO
TITLE "Peer Gynt Suite no. 2, op. 55: IV. Solveig's Song (Andante Allegretto tranqui..."
PERFORMER "Edvard Grieg"
INDEX 01 27:02:33
TRACK 09 AUDIO
TITLE "From Holberg's Time, op. 40: I. Praludium (Allegro vivace)"
PERFORMER "Edvard Grieg"
INDEX 01 33:09:33
TRACK 10 AUDIO
TITLE "From Holberg's Time, op. 40: II. Sarabande (Andante)"
PERFORMER "Edvard Grieg"
INDEX 01 36:06:33
TRACK 11 AUDIO
TITLE "From Holberg's Time, op. 40: III. Gavotte (Allegretto)"
PERFORMER "Edvard Grieg"
INDEX 01 40:22:33
TRACK 12 AUDIO
TITLE "From Holberg's Time, op. 40: IV. Air (Andante religioso)"
PERFORMER "Edvard Grieg"
INDEX 01 44:11:08
INDEX 02 50:02:32
TRACK 13 AUDIO
TITLE "From Holberg's Time, op. 40: V. Rigaudon (Allegro con brio)"
PERFORMER "Edvard Grieg"
INDEX 01 50:02:33
TRACK 14 AUDIO
TITLE "Valse triste, op. 44 (Lento)"
PERFORMER "Jean Sibelius"
INDEX 00 53:58:33
INDEX 01 54:02:33
TRACK 15 AUDIO
TITLE "The Swan of Tuonela, op. 22 no. 3 (Andante molto sostenuto)"
PERFORMER "Jean Sibelius"
INDEX 00 60:05:32
INDEX 01 60:12:33
TRACK 16 AUDIO
TITLE "Finlandia, op. 26 (Andante sostenuto. Allegro moderato)"
PERFORMER "Jean Sibelius"
INDEX 01 68:11:33

下载链接     密码:zb8h

您的鼓励是我的动力!如果觉得音乐还不错打赏博主把! 打赏

给我留言

您必须 登录 才能发表留言!

Copyright © 爱无损 LoveWuSun.Com 保留所有权利.   Theme  Ality 京ICP备15018093号

用户登录

分享到: