A-A+

阿杜-天黑 首版原盘CD无损WAV

2016年04月25日 华语流行 暂无评论 阅读 4,605 views 次

Exact Audio Copy V1.0 beta 3 from 29. August 2011

EAC 抓取日志文件从1. 一月 2013, 16:03

阿杜 / 天黑

使用驱动器 :MATSHITADVD-RAM UJ8D1 Adapter: 0 ID: 1

读取模式 : 可靠Secure
使用精确流 : 是
清空音频缓存 : 是
使用 C2 指示器 : 否

读取偏移校正: : 0
读取 Lead-In 和 Lead-Out : 否
用静音填充抓取中丢失偏移的采样 : 是
去除首尾静音块 : 否
在CRC 计算中使用了空样本 : 是
已用接口 : Win NT 及 2000 本地 Win32 接口

所用输出模式: : 内部 WAV 函数
样本格式 : 44.100 Hz; 16 Bit; 立体声
已抓取 CD 的 TOC

音轨 | 起始 | 长度 | 起始扇区 | 结束扇区
--------------------------------------------
1 | 0:00.00 | 3:33.58 | 0 | 16032
2 | 3:33.58 | 4:20.49 | 16033 | 35581
3 | 7:54.32 | 3:55.67 | 35582 | 53273
4 | 11:50.24 | 4:20.15 | 53274 | 72788
5 | 16:10.39 | 5:15.07 | 72789 | 96420
6 | 21:25.46 | 4:38.64 | 96421 | 117334
7 | 26:04.35 | 4:11.57 | 117335 | 136216
8 | 30:16.17 | 3:31.16 | 136217 | 152057
9 | 33:47.33 | 3:50.32 | 152058 | 169339
10 | 37:37.65 | 4:10.06 | 169340 | 188095
范围状态及错误

已选择范围

文件名 C:\Users\Administrator.ZFGO1OX58DHXCHU\Documents\阿杜 - 天黑.wav

峰值电平 100.0 %
抓取速度 4.2 X
范围质量 99.9 %
复制 CRC 98602FE2
复制成功

没有错误发生

状态报告结尾

---- CUETools DB Plugin V2.1.3

链接:  https://pan.baidu.com/s/1kXd5dOV  密码:p9sg

02ee703e6709c93d6051f568983df8dcd3005483

您的鼓励是我的动力!如果觉得音乐还不错打赏博主把! 打赏

给我留言

您必须 登录 才能发表留言!

Copyright © 爱无损 LoveWuSun.Com 保留所有权利.   Theme  Ality 京ICP备15018093号

用户登录